<?xml version="1.0" standalone="no"?>
<!DOCTYPE svg PUBLIC "-//W3C//DTD SVG 1.1//EN" "http://www.w3.org/Graphics/SVG/1.1/DTD/svg11.dtd" >
<svg xmlns="http://www.w3.org/2000/svg">
<metadata>Generated by IcoMoon</metadata>
<defs>
<font id="icomoon" horiz-adv-x="1024">
<font-face units-per-em="1024" ascent="960" descent="-64" />
<missing-glyph horiz-adv-x="1024" />
<glyph unicode="&#x20;" horiz-adv-x="512" d="" />
<glyph unicode="&#xe900;" glyph-name="fancy-quote-right" d="M649.6 476.2v-267.6c0-76-23.8-137.6-71.4-184.8s-115.6-76.4-203.8-87.8v121.8c43.4 9.4 74.6 25 93.4 46.8s28.4 53 28.4 93.4h-121.8v278.2h275.2zM573.2 898.8c0-33.8-27.4-61.2-61.2-61.2s-61.2 27.4-61.2 61.2c0 33.8 27.4 61.2 61.2 61.2s61.2-27.4 61.2-61.2zM491.8 862.8h40.6v-319.8h-40.6v319.8z" />
<glyph unicode="&#xe901;" d="M376.6 645.8h-285.2v64.2h221v230h64.2z" />
<glyph unicode="&#xe902;" d="M218 498.6h402v-48.2h-402v48.2z" />
<glyph unicode="&#xe903;" d="M218 375.6h327.2v-48.2h-327.2v48.2z" />
<glyph unicode="&#xe904;" d="M218 257.8h280.4v-48.2h-280.4v48.2z" />
<glyph unicode="&#xe905;" d="M162.6 58.2c-16.4 0-29.8 13.4-29.8 29.8v568.4c0.2 0.2 0.4 0.2 0.6 0.4l200.2 221.6c5.6 6.2 13.8 9.8 22.2 9.8h418.6c16.4 0 29.8-13.4 29.8-29.8v-438.2c0-12.8 8.2-24 20.4-28.2 0.2 0 0.4-0.2 0.6-0.2 19.2-6.8 39.4 7.8 39.4 28.2v506.2c0 16.4-13.4 29.8-29.8 29.8h-476.6l-0.6-0.6c-8.6 0.4-20.8 0.6-31.6 0.6-8.4 0-16.4-3.6-22-9.8l-192.6-213c-0.6-0.8-1.4-1.4-2.2-2.2l-27-24.4c-6.2-5.6-9.8-13.8-9.8-22.2v-664.2c0-16.4 13.4-29.8 29.8-29.8h393.4c20.6 0 35.8 20.8 28 40-1 2.6-2 5.4-3 8-4.2 11.8-15.4 19.8-28 19.8h-330z" />
<glyph unicode="&#xe906;" d="M851.6 308.8c-18.4 11.4-38.6 19.8-60.4 24.8-14.6 3.4-29.8 5.2-45.4 5.2-111.6 0-201.4-90-201.4-201.4 0-16.4 2.2-32 5.8-47.2 6-24.6 16.2-47.6 30.2-67.8 36.4-52.2 96.8-86.4 165.4-86.4 111.6 0 201.4 90 201.4 201.4 0 72.8-38.2 136-95.6 171.4z" />
<glyph unicode="&#xe907;" d="M880 194.8c-8.4 14.8-29.6 17-44.4 6.4l-110.2-84.8-36 53c-10.6 14.8-31.8 19-46.6 8.4s-19-31.8-8.4-46.6l57.2-80.6c4.2-6.4 12.8-12.8 21.2-12.8 2.2 0 4.2 0 4.2 0 6.4 0 14.8 2.2 19 6.4l137.8 103.8c14.6 10.8 16.8 31.8 6.2 46.8z" />
<glyph unicode="&#xe908;" glyph-name="bi-analytics" d="M128.6-45.4c-34.2 0-60.6 9.4-78.8 27.8-26.8 27-24.8 63.4-24.8 65v0c0 0-13.2 673.8-15.8 789.4-0.8 38 9.8 66.6 31.4 85 35.2 29.6 86.4 20.4 88.6 20l448.4 0.2 211.4-187-2.6-270-21 0.2 2.6 260.4-198.2 175.4h-442.6c-2.4 0.2-45.6 8-73.2-15.4-16.6-14-24.6-37-23.8-68.2 2.6-115.6 15.8-790.2 15.8-790.2 0-1-1.2-29.8 18.8-50 15.6-15.6 40-22.6 72.4-21.2 106.8 5.2 846.4-0.2 853.8-0.2l-0.2-21c-7.4 0-746.4 5.4-852.6 0.2-3.2-0.4-6.4-0.4-9.6-0.4zM1024-54l-18-2c-3 0-347.4 2.6-604.4 2.6-142 0-229.6-0.8-260.6-2.2-42.8-2.2-75.6 8.2-98 30.6-30.8 30.4-28.4 71.2-28.4 73h1c-1.4 11.6-1.8 39.4-3.2 108.8-4 195.8-11.8 593.4-13.8 679.6-1 41.2 11 72.6 35.6 93.2 39.6 33 96.4 23 99.2 22.4l457.2 0.4 221.2-192.8-2.8-285.2-42.6 0.4 2.6 266-194.6 169.6-447.4 0.2c-5.8 0.8-42.4 6-65.2-13.2-14.2-12-21.2-32.2-20.4-60 2.6-115.6 16-790.2 16-790.2 0-1.6-0.8-26.2 16-42.8 13.4-13.4 35.6-19.4 65.6-18 31.6 1.6 120.4 2.4 264.2 2.4 259.4 0 600.2-2.4 603.2-2.6h17.6v-40.2zM63-14.8c16-13.2 38.2-20 66.2-20.2-28 0.2-50.2 7-66.2 20.2zM401.6-32.4c231.6 0 533.8-2 594-2.4v0c-59.8 0.4-359.2 2.4-592.4 2.4-48 0-90 0-125.6-0.2 35.2 0 76.6 0.2 124 0.2zM36 47.4c-0.2-3.6-0.8-33.6 20.8-56.4-21.4 22.6-21 52.8-20.8 56.4 0-0.2 0-0.2 0 0zM21 859.4c-1-7-1.2-14.6-1-22.6 1.8-75.8 8-392.4 12.2-601-4.2 208.6-10.4 525.2-12.2 601-0.2 8 0.2 15.6 1 22.6zM582.4 931.4v0zM109.6 933c-17.4 0-42.4-3.4-61.6-19.4-11.4-9.6-19.4-22.4-23.8-38.2 4.4 16 12.4 28.6 23.8 38.2 27 22.6 66 19.8 78.8 18.4-4 0.4-9.8 1-17.2 1zM778 731.8h-154.6c-46 0-59.2 32.6-59.6 34l-0.6 3.8v161.8h20.8v-159.4c2.6-4.6 12.8-19.2 39.4-19.2h154.6v-21zM788.4 721.4h-165c-42.4 0-63.6 25.6-69.4 40.8l-1.2 5.6-0.2 174.2h42v-166.8c3.2-4.4 11.2-11.8 28.8-11.8h165v-42zM623.4 742.4v0zM574.2 767.8c0.2 0 11.2-25.4 49-25.4-32.2 0.2-45 18.8-48.2 24.6l-1.2 2 0.4-1.2c-0.2 0-0.2 0 0 0zM410.8-43h-175.8v223.6h175.8v-223.6zM277-1h91.8v139.4h-91.8v-139.4zM609-43h-175.8v328.6h175.8v-328.6zM475.2-1h91.8v244.6h-91.8v-244.6zM813.8-40h-175.8v468.8h175.8v-468.8zM680 2h91.8v384.8h-91.8v-384.8zM848 549.6v-157.2h42v115.2h91.8v-505.6h-91.8v270.4h-42v-312.4h175.8v589.6zM898.6 341.2c0-16.458-12.536-29.8-28-29.8s-28 13.342-28 29.8c0 16.458 12.536 29.8 28 29.8s28-13.342 28-29.8zM384.2 254.8c0-16.458-12.536-29.8-28-29.8s-28 13.342-28 29.8c0 16.458 12.536 29.8 28 29.8s28-13.342 28-29.8zM287.4 220.8h-178.6c-1.4 0-2.6 1.2-2.6 2.6v49c0 1.4 1.2 2.6 2.6 2.6h178.6c1.4 0 2.6-1.2 2.6-2.6v-49c0-1.4-1.2-2.6-2.6-2.6zM537.8 327.6h-429c-1.4 0-2.6 1.2-2.6 2.6v49c0 1.4 1.2 2.6 2.6 2.6h428.8c1.4 0 2.6-1.2 2.6-2.6v-49c0.2-1.4-1-2.6-2.4-2.6zM301 448.4h-27.8c-90 0-163.2 73.2-163.2 163.2v27.8c0 90 73.2 163.2 163.2 163.2h27.8c90 0 163.2-73.2 163.2-163.2v-27.8c0-90-73.2-163.2-163.2-163.2zM273.4 765.6c-69.6 0-126.2-56.6-126.2-126.2v-27.8c0-69.6 56.6-126.2 126.2-126.2h27.8c69.6 0 126.2 56.6 126.2 126.2v27.8c0 69.6-56.6 126.2-126.2 126.2h-27.8zM268.8 834.2v-211.2h231.6c0 0.2 2 230.2-231.6 211.2z" />
<glyph unicode="&#xe909;" glyph-name="collection-entry" d="M427.4 789.6h170.4v-34h-170.4v34zM427.4 721.4h170.4v-34h-170.4v34zM938.8 73.6v136.4c0 7.6-5 14.2-12.2 16.4l-397 115.6v208.8h119.4c9.4 0 17 7.6 17 17v272.8c0 4.6-1.8 8.8-5 12l-102.2 102.4c-3.2 3.2-7.6 5-12 5h-170.4c-9.4 0-17-7.6-17-17v-375c0-9.4 7.6-17 17-17h119.4v-209l-397.2-115.8c-7.2-2.2-12.2-8.8-12.2-16.4v-136.4c0-7.6 5-14.2 12.2-16.4l409.2-119.4c1.6-0.4 3.2-0.6 4.8-0.6s3.2 0.2 4.8 0.6l409.2 119.4c7.2 2.2 12.2 9 12.2 16.6zM563.8 901.8l44-44h-44v44zM393.2 926h136.4v-85.2c0-9.4 7.6-17 17-17h85.4v-238.6h-238.8v340.8zM495.6 306.6v-89.6l-39.2 39-24-24 68.2-68.2c3.4-3.4 7.6-5 12-5s8.8 1.6 12 5l68.2 68.2-24 24-39-39v89.6l331-96.6-348.2-101.6-348.2 101.6 331.2 96.6zM120.4 187.2l375-109.4v-100.8l-375 109.4v100.8zM529.6-23v100.8l375 109.4v-100.8l-375-109.4zM427.4 857.8h68.2v-34h-68.2v34zM18.2 550.8h119.4c0-47 38.2-85.2 85.2-85.2h51.2c28.2 0 51.2-23 51.2-51.2v-27l-39.2 39.2-24.2-24.2 68.2-68.2c3.4-3.4 7.6-5 12-5s8.8 1.6 12 5l68.2 68.2-24.2 24.2-39-39v27c0 47-38.2 85.2-85.2 85.2h-51.2c-28.2 0-51.2 23-51.2 51.2h119.4c9.4 0 17 7.6 17 17v272.6c0 4.6-1.8 8.8-5 12l-102 102.4c-3.2 3.2-7.6 5-12 5h-170.6c-9.4 0-17-7.6-17-17v-375c0-9.6 7.6-17.2 17-17.2v0zM205.8 901.8l44-44h-44v44zM35.2 926h136.4v-85.2c0-9.4 7.6-17 17-17h85.4v-238.6h-238.8v340.8zM69.4 789.6h170.4v-34h-170.4v34zM69.4 721.4h170.4v-34h-170.4v34zM69.4 653.2h170.4v-34h-170.4v34zM69.4 857.8h68.2v-34h-68.2v34zM1024 568v272.6c0 4.6-1.8 8.8-5 12l-102.2 102.4c-3.2 3.2-7.6 5-12 5h-170.4c-9.4 0-17-7.6-17-17v-375c0-9.4 7.6-17 17-17h119.4c0-28.2-23-51.2-51.2-51.2h-51.2c-47 0-85.2-38.2-85.2-85.2v-27l-39 39-24.2-24.2 68.2-68.2c3.4-3.4 7.6-5 12-5s8.8 1.6 12 5l68.2 68.2-24.2 24.2-39.2-39.2v27c0 28.2 23 51.2 51.2 51.2h51.2c47 0 85.2 38.2 85.2 85.2h119.4c9.4 0 17 7.6 17 17.2zM921.8 901.8l44-44h-44v44zM751.2 585v341h136.4v-85.2c0-9.4 7.6-17 17-17h85.4v-238.6h-238.8zM785.4 789.6h170.4v-34h-170.4v34zM785.4 721.4h170.4v-34h-170.4v34zM785.4 653.2h170.4v-34h-170.4v34zM785.4 857.8h68.2v-34h-68.2v34zM427.4 653.2h34v-34h-34v34zM495.6 653.2h34v-34h-34v34zM563.8 653.2h34v-34h-34v34z" />
<glyph unicode="&#xe90a;" glyph-name="inventory-management" d="M837.2 32.6v239.4h-122.2v95.8h-123.8v118.8h-127v107.2h-122.2v122.2h-128.8v145.2h-184.8v-828.6h-29.8v-72.6h1023.4v72.6h-184.8zM68 32.6v789h105.6v-789h-105.6zM302.4 593.8v-561.2h-82.6v643.8h82.6v-82.6zM469 32.6v414.2h82.6v-414.2h-82.6zM342 32.6v521.6h82.6v-521.6h-82.6zM675.4 272v-239.4h-82.6v295.4h82.6v-56zM797.6 32.6h-82.6v199.8h82.6v-199.8zM342 749h108l157.4-136v-89.8h103.6l175.4-151.6v-87.8h33.8v-140.6h59.6v140.6h33.8v132h-119l-160.2 138.4v101h-116.8l-148.6 128.4v97.4h-112.4l-63.2 54.6-25.4-29.2 74-64zM948 127.8c-15.4 0-27.8-12.4-27.8-27.8s12.4-27.8 27.8-27.8h3.8c15.4 0 27.8 12.4 27.8 27.8s-12.4 27.8-27.8 27.8h-3.8z" />
<glyph unicode="&#xe90b;" glyph-name="ledger-query" d="M693.2 324.4c-11 0-20-9-20-20v-137.4c0-55-44.6-99.6-99.6-99.6h-215c-11 0-20-9-20-20v-39.6l-47.6 47.6c-3 7-10.2 12-18.2 12h-129.6c-55 0-99.6 44.6-99.6 99.6v306.8c0 55 44.6 99.6 99.6 99.6h201.2c11 0 20 9 20 20s-9 20-20 20h-201.2c-77 0-139.4-62.6-139.4-139.4v-306.8c0-77 62.6-139.4 139.4-139.4h119.2l81.8-81.8c3.8-3.8 9-5.8 14-5.8 2.6 0 5.2 0.4 7.6 1.6 7.4 3 12.4 10.4 12.4 18.4v67.8h195.2c77 0 139.4 62.6 139.4 139.4v137.4c0.4 10.6-8.6 19.6-19.6 19.6zM734.4 960h-50.4c-159.8 0-289.6-130-289.6-289.6s130-289.6 289.6-289.6h50.4c25 0 49.6 3.2 73.6 9.4l74.6-74.4c3.8-3.8 9-5.8 14-5.8 2.6 0 5.2 0.4 7.6 1.6 7.4 3 12.2 10.4 12.2 18.4v115.2c31.6 25.6 57.8 57.8 76.2 93.8 20.8 41 31.4 85.2 31.4 131.4 0 159.6-130 289.6-289.6 289.6zM884.4 470.8c-5-3.8-8-9.6-8-16v-77l-48.8 48.8c-3.8 3.8-8.8 5.8-14 5.8-2 0-4-0.2-5.8-0.8-23.8-7.2-48.4-11-73.4-11h-50.4c-137.8 0-249.8 112-249.8 249.8s112 249.8 249.8 249.8h50.4c137.8 0 249.8-112 249.8-249.8 0-79.2-36.4-152-99.8-199.6zM798.8 742c-2.8 41.8-36.6 75.4-78.2 78.2-23.6 1.6-46.2-6.4-63.4-22.4-17-16-26.8-38.4-26.8-61.6 0-11 9-20 20-20s20 9 20 20c0 12.4 5 24 14.2 32.6s21 12.8 33.6 11.8c22-1.6 39.6-19.2 41.2-41.2 1.6-22.2-13-41.8-34.6-46.6-17.4-4-29.8-19.2-29.8-37v-47.8c0-11 9-20 20-20s20 9 20 20v46c39.8 9.8 66.8 46.4 63.8 88zM728.8 543c-3.8 3.8-8.8 5.8-14 5.8s-10.4-2.2-14-5.8-5.8-8.8-5.8-14c0-5.2 2.2-10.4 5.8-14.2 3.8-3.8 8.8-5.8 14-5.8s10.4 2.2 14 5.8c3.8 3.8 5.8 8.8 5.8 14.2 0 5.2-2 10.4-5.8 14zM551.8 342.2h-420.6c-11 0-20-9-20-20s9-20 20-20h420.4c11 0 20 9 20 20 0 11.2-8.8 20-19.8 20zM565.8 224.8c-3.8 3.8-8.8 5.8-14 5.8s-10.4-2.2-14-5.8c-3.8-3.8-5.8-8.8-5.8-14s2.2-10.4 5.8-14c3.8-3.8 8.8-5.8 14-5.8s10.4 2.2 14 5.8c3.8 3.8 5.8 8.8 5.8 14s-2 10.4-5.8 14zM473.4 230.6h-342c-11 0-20-9-20-20s9-20 20-20h342c11 0 20 9 20 20-0.2 11.2-9 20-20 20zM422.2 453.8h-291c-11 0-20-9-20-20s9-20 20-20h291c11 0 20 9 20 20 0 11.2-9 20-20 20z" />
<glyph unicode="&#xe90c;" glyph-name="menu" d="M64 768h896v-192h-896zM64 512h896v-192h-896zM64 256h896v-192h-896z" />
<glyph unicode="&#xe90d;" d="M876.8 281.2c-11 4.2-42.6 21-43.4 41.8l-1.4 37c3.2 30.4 26.8 301-107.8 415.6-44.6 38-103 65.6-164.4 78.2 3.8 8.8 5.8 18 5.8 27.6 0 30-19.6 57-48 66.6l0.4 0.6-2.8 0.2-1.6 0.4-0.2-0.4c-15.4 1-29.8-4.2-41.6-15-14.4-13.2-23.4-33.2-23.4-52.4 0-9.6 2-18.8 5.8-27.6-61.6-12.4-119.8-40.2-164.4-78.2-134.6-114.6-111-385.2-107.8-415.4l-1.4-37.2c-1-21-32.6-37.6-43.6-41.8-86.4-31.8-86-90.4-85-101.6 0-87 78.6-117.4 120.4-121.2h222.2c4-52.8 46.6-97 102.6-106.2v0l1.8-0.2 2.4-0.4c1.8-0.2 3.6-0.4 5.4-0.6h0.4c1.8 0.2 3.6 0.4 5.4 0.6v0l2.4 0.4 1.8 0.2c55.8 9.2 98.6 53.4 102.6 106.2h222.4c41.6 3.8 120.2 34.2 120.2 121 0.8 11.2 1.2 70-85.2 101.8zM500.4 907.4c1.6 1.2 3.4 2 5.2 3l8-3c8.4-6 13.4-15.6 13.4-26 0-8-3-15.6-8.4-21.6-0.6 0-1.4 0.2-2 0.2l-4 0.2c-1.8 0.2-3.8 0.2-5.6 0.4-1.8 0-3.6-0.2-5.4-0.4v0l-4-0.2c-0.6 0-1.4 0-2-0.2-5.4 6-8.4 13.6-8.4 21.6-0.4 10.2 4.6 20 13.2 26zM497 58.2v0h83.8c-3.8-32.6-30.8-60.2-66.2-67.6-2.6-0.6-5-1-7.4-1.2-2.4 0.2-4.8 0.6-7.2 1.2v0c-35.6 7.4-62.4 34.8-66.2 67.4l63.2 0.2zM436.4 94.4h-36.2v2l36.2-0.6v-1.4zM577.4 95.6v1h-140.8v-0.4l-36.2 0.2v0.2h-225c-8.8 1-85 11.6-84.6 83.4v1.4l-0.2 1.2c-0.2 1.6-3.4 39 60.2 62.4 2.8 1 66.6 25.6 68.4 76.4l1.4 40-0.2 1.2c-0.4 2.8-29 278.4 94.4 383.4 45.2 39 107.4 65.8 170 74 2.4 0 4.8 0.4 7.2 0.6 2.2 0.4 4.4 0.6 7.2 0.8l2 0.2v2l11.2-0.2v-2.2h2.2c3.6 0 5.2-0.2 7.2-0.4 1.6-0.2 3.6-0.4 6.8-0.6 63-8.2 125.2-35 170.6-73.8 123.2-105 94.6-380.6 94.4-383.4l-0.2-1.6 1.4-39.8c1.8-50.8 65.8-75.4 68.4-76.4 63.6-23.4 60.4-60.8 60.2-62.2l-0.2-1.8v-1c0.4-72-76-82.6-84.4-83.4h-225.2v-1.2h-36.2z" />
<glyph unicode="&#xe90e;" d="M503.2-59.6v1.2l-13.6 2.4c-53.8 11.4-95.6 54-103.2 105h-214c-45.4 4.2-129.8 36.8-129.8 130.6-1 11.8-1.6 76.2 91.2 110.4 12.6 4.8 36.8 19.8 37.4 33.4l1.4 37.2c-3.2 29.6-27.2 304.2 111 422 43.2 36.8 99 64.2 158.2 78-1.8 6.8-2.8 13.8-2.8 20.8 0 21.6 10.2 44.4 26.4 59.2 12 11 26.4 17 42 17.6l0.8 1.8 10.4-2.4 13.6-1.2-2-4c27-13.2 44.4-40.8 44.4-71.2 0-7-1-14-2.8-20.8 59.2-13.8 115-41.2 158.2-78 138-117.6 114.2-392.6 111-423.6l1.4-35.8c0.6-13.8 24.6-28.6 37.4-33.4 92.6-34 92-98.6 91-111.2 0-92.8-84-125.4-128.6-129.6h-215c-7.6-50.4-48.6-92.6-101.6-104.6v-0.4l-15.4-2.4v-1l-3.6 0.6-3.4-0.6zM501.2-39.4l1.2-0.2c1.4-0.2 3-0.4 4.4-0.6 1.6 0.2 3 0.4 4.4 0.6l4 0.6c51.4 8.4 91.2 49.6 94.8 97.8l0.6 8.6h231c37.8 3.6 111 31.6 111 111.8 0.8 11 1.2 63.6-79 93.2-0.6 0.2-48.2 18.8-49.4 50l-1.4 37c3.2 31.2 26.4 297.4-104.6 409-43.4 37-100.2 64-160.2 76.2l-11.2 2.2 4.6 10.4c3.2 7.6 5 15.8 5 24 0 25.6-17.2 49.4-41.6 57.8l-2 0.4c-13 0.8-24.8-3.4-34.8-12.6-12.6-11.4-20.4-29-20.4-45.6 0-8.2 1.6-16.2 5-24l4.6-10.4-11.2-2.2c-60-12.2-117-39.2-160.2-76.2-131-111.6-107.6-377.4-104.6-407.4l-1.4-38.6c-1.2-31.2-48.8-49.8-49.4-50-80.2-29.6-80-82-79.2-92.2 0-81.2 73.4-109.2 112-112.8h230l0.6-8.6c3.6-48.2 43.4-89.4 94.8-97.8l2.6-0.4zM506.8-19.8l-1.2 0.2c-2.6 0.4-5.2 0.8-8 1.4-39.2 8-69.4 39.2-73.6 75.6l-1.2 10.4h168l-1.2-10.4c-4.2-36.4-34.6-67.4-73.6-75.6-2.8-0.6-5.4-1-8-1.4l-1.2-0.2zM444.6 48.8c7.2-24 29.2-43.4 56.8-49.2 2-0.4 3.8-0.6 5.4-1 1.8 0.2 3.6 0.6 5.4 1 27.4 5.6 49.6 25.2 56.8 49.2h-124.4zM436.4 85.2h-45.4l-0.2 2.2h-215.8c-10.6 1.2-94.4 12.8-93.8 92.8-0.2 3.4-4.4 47.6 66 73.6 2.4 1 60.8 23.6 62.4 68.2l1.4 40c-0.4 2.8-29.8 283 97.4 391.4 46.8 39.8 110.6 67.4 175.2 75.8 3.2 0 5 0.4 7 0.6 0.4 0 1 0.2 1.4 0.2v3l29.6-0.8v-2.2c0.4 0 0.8 0 1.2-0.2 1.6-0.2 3.2-0.4 6.2-0.6 65.6-8.4 129.4-36.2 176.2-76 127.2-108.4 97.8-388.6 97.6-391.4l1.4-40c1.6-44.6 60-67.2 62.4-68.2 70.2-25.8 66.2-70 66-72 0.4-81.4-83.2-93.2-92.8-94.4h-217.2l-9.2-1-168 1.2v-0.8l-9-1.4zM586.6 105h18l9 1h225.4c6.8 0.8 75.6 10.4 75.2 74.2v2c0.4 2.8 2.4 33.6-54 54.2-3 1.2-72.4 28-74.6 84.8l-1.6 40.4 0.2 2.2c0.4 2.8 28.4 273.6-91 375.6-44.2 37.6-104.6 63.6-165.8 71.6-3 0.2-5.2 0.4-7 0.6-1.6 0.2-2.8 0.4-5.8 0.4l-14.8 0.4c-2.6-0.2-4.6-0.4-6.4-0.8-3-0.4-5.6-0.8-8.6-0.8-60-7.8-120.2-34-164.4-71.6-119.6-101.8-91.4-372.6-91.2-375.4l0.2-2.6-1.4-40c-2-55.6-67-82-74.4-84.8-56.6-20.8-54.4-51.4-54.2-52.8l0.2-2.4c-0.4-65 68.6-74.6 76.4-75.4h410.6v-0.8zM522.4 850.2l-4.4 0.4-1.4 9.4-0.6-9.2-9.4 0.6-13-1-5 3.2c-7 7.6-10.8 17.4-10.8 27.8 0 13.4 6.6 26 17.6 33.6 2 1.4 4.4 2.6 6.8 3.8l3.6 1.6 13.6-5.6c10.8-7.8 17.4-20.2 17.4-33.4 0-10.4-3.8-20.2-10.8-27.8l-3.6-3.4zM513 869.4h1.2c2.2 3.6 3.4 7.6 3.4 12 0 7-3.2 13.4-8.6 17.8l-2.8 1.2c-0.2-0.2-0.4-0.2-0.6-0.4-6-4.2-9.6-11.2-9.6-18.4 0-4.2 1.2-8.4 3.4-12l6.8 0.4 6.8-0.6z" />
<glyph unicode="&#xe90f;" d="M762.6 509c-121 0-219.6 98.6-219.6 219.6s98.6 219.6 219.6 219.6 219.6-98.6 219.6-219.6-98.6-219.6-219.6-219.6z" />
<glyph unicode="&#xe910;" d="M944.2 728.6c0-100.295-81.305-181.6-181.6-181.6s-181.6 81.305-181.6 181.6c0 100.295 81.305 181.6 181.6 181.6s181.6-81.305 181.6-181.6z" />
<glyph unicode="&#xe911;" d="M786.8 820h7.6c-0.2-1.6-0.4-3.2-0.4-4.8s-0.2-3.8-0.2-6.4v-134.6h12.6v-16.4h-69.4v16.4h12.6v106.6l-16.4-7v17.4c12.8 5.2 24.8 11.2 35.8 18.2 11 7.2 17 10.6 17.8 10.6z" />
<glyph unicode="&#xe912;" glyph-name="order-management" d="M933.8 180.6c0 2.8-0.2 5.8-0.6 8.6-2.4 23.4-16.4 44-37.4 55-9.8 5.2-21.2 7.8-34 7.8v0h-2.8c-2.4 8.6-6.6 16.4-12.4 23-11.4 13-27 20-45.2 20v0l-20.2-0.2c-2 6.2-5 11.8-9 16.6-10.2 12.4-25.8 18.6-47.8 18.6v0l-11.6-0.2-0.8 191.4c-0.4 24-11 45-29.4 57.6-17.2 11.8-39.2 14.6-58 7.4-28-10.6-45.8-36.6-45.4-66.4l2.2-289.6c-3.2 1.6-6.4 3.2-9.8 4.4-19 7.4-40.6 8.2-54 3.6-1.4-0.2-2.8-0.6-4-1.2-17-7.2-29-19.4-35-35.6-7.2-19.8-4.4-43.2 8.4-68.2l103.2-187.4c2-3.6 5.2-6.6 9.2-8.2 2.4-1 4.8-1.4 7.4-1.4l263.4 3.6c7 0.2 13.4 4 16.6 10.4l9.4 18.8c25.6 51.4 38.8 109 38 166.4l-0.4 45.2zM514.2 188.6c2 5.6 6 9.8 11.8 12.8 0.6 0.2 1 0.4 1.6 0.6 3 1.2 6.6 2 10.6 2 17.4 0 38-11 45.6-23.6l8.2-24c2-4.4 5.4-8 10-9.8 4.4-1.8 9.4-2 13.8-0.4 4.8 1.8 8.4 5.4 10.6 10 2.2 5 2.2 10.6 0 15.6l-6.8 20.8-2.6 328c-0.2 16.8 10.8 27 21 30.8 7.2 2.8 16.4 1.4 23.4-3.4 8.2-5.6 12.8-15.2 13-27l2.4-272.2c0-7.4 4.6-14.2 11.4-17 2.4-1 4.8-1.6 7.4-1.6h1.6c9.8 0.8 17.4 9.4 17.2 19.6l-1.2 42.6 12.4 0.2c8.6 0 14.8-1.8 17.4-5.2 2-2.4 3-6.4 3.2-11.8l1.4-56c0.2-7.4 4.6-14.2 11.6-17 2.4-1 4.8-1.4 7.2-1.4h1.6c9.8 0.8 17.4 9.4 17.2 19.6l-1 36.4 18.2 0.2c6.2 0 12-2.6 16.2-7.4 3.2-3.8 5-8.8 5.2-14.6l1.6-74.6c0-7.4 4.6-14.2 11.4-17 2.4-1 4.8-1.4 7.4-1.4h1.6c9.8 0.8 17.4 9.4 17.2 19.6l-0.8 52.4h1.2c16.8 0 30.8-12.6 32.4-29.2 0.2-1.8 0.2-3.6 0.4-5.4l0.6-45.2c0.8-51.6-11-103.2-34-149.2l-4.2-8.6-240.6-3.2-97.6 177.2c-7.6 14.8-9.8 28.2-6.2 37.8zM607-56.6v0 0 0zM305.8 782.2c2.6-6 3.6-12.4 3-19.4-2-22.2-21.6-38.6-43.6-36.6-22.2 2-38.6 21.6-36.6 43.6 2 22.2 21.6 38.6 43.6 36.6l2.2 25.4c-36.2 3.2-68-23.6-71.2-59.8s23.6-68 59.8-71.2c36.2-3.2 68 23.6 71.2 59.8 0.6 6.6 0.2 13-1.2 19.2l-27.2 2.4zM268.8 695.2v0c-2 0-4.2 0.2-6.2 0.2-39.2 3.4-68.2 38-64.8 77.2 3.4 38.6 38 68.2 77.2 64.8l5.4-0.4-3.2-36.4-5.4 0.4c-19.2 2-36-12.8-37.6-31.6-0.8-9.2 2-18.2 8-25.4s14.4-11.6 23.6-12.4c19-2 36 12.8 37.6 31.6 0.6 5.8-0.4 11.4-2.6 16.6l-3.6 8.4 40.6-3.6 0.8-4c1.4-6.8 1.8-13.8 1.2-20.8-3.2-36-34.4-64.6-71-64.6zM268.6 826.8c-30.8 0-57.2-24.2-59.8-55-3-33 21.6-62.4 54.8-65.2 33.2-3 62.4 22.2 65.2 54.8 0.4 4.6 0.2 9-0.4 13.6l-15 1.4c1-4.4 1.2-9 0.8-13.6-2.2-24.8-24.4-43.8-49.6-41.6-12.2 1-23.2 6.8-31 16.2s-11.6 21.2-10.6 33.4c2 23 21.2 41 44 41.8l1.6 14.2zM549.4 797.2h-180.6c-0.6 0-1.2 0.6-1.2 1.2v28.2c0 0.6 0.6 1.2 1.2 1.2h180.6c0.6 0 1.2-0.6 1.2-1.2v-28.2c0-0.8-0.6-1.2-1.2-1.2zM659.8 736h-291c-0.6 0-1.2 0.6-1.2 1.2v28c0 0.6 0.6 1.2 1.2 1.2h291c0.6 0 1.2-0.6 1.2-1.2v-28.2c0-0.6-0.6-1-1.2-1zM305.8 599.8c2.6-6 3.6-12.4 3-19.4-2-22.2-21.6-38.6-43.6-36.6-22.2 2-38.6 21.6-36.6 43.6 2 22.2 21.6 38.6 43.6 36.6l2.2 25.4c-36.2 3.2-68-23.6-71.2-59.8s23.6-68 59.8-71.2c36.2-3.2 68 23.6 71.2 59.8 0.6 6.6 0.2 13-1.2 19.2l-27.2 2.4zM268.8 512.8v0c-2 0-4.2 0.2-6.2 0.2-39.2 3.4-68.2 38-64.8 77.2 3.4 38.6 38 68.2 77.2 64.8l5.4-0.4-3.2-36.4-5.4 0.4c-18.8 2-36-12.8-37.6-31.6-0.8-9.2 2-18.2 8-25.4s14.4-11.6 23.6-12.4c19-2 36 12.8 37.6 31.6 0.6 5.8-0.4 11.4-2.6 16.6l-3.6 8.4 40.6-3.6 0.8-4c1.4-6.8 1.8-13.8 1.2-20.8-3.2-36-34.4-64.6-71-64.6zM268.6 644.4c-30.8 0-57.2-24.2-59.8-55-3-33 21.6-62.4 54.8-65.2s62.4 22.2 65.2 54.8c0.4 4.6 0.2 9-0.4 13.6l-15 1.4c1-4.4 1.2-9 0.8-13.6-2.2-24.8-24.4-43.6-49.6-41.6-12.2 1-23.2 6.8-31 16.2s-11.6 21.2-10.6 33.4c2 23 21.2 41 44 41.8l1.6 14.2zM549.4 614.8h-180.6c-0.6 0-1.2 0.6-1.2 1.2v28.2c0 0.6 0.6 1.2 1.2 1.2h180.6c0.6 0 1.2-0.6 1.2-1.2v-28.2c0-0.6-0.6-1.2-1.2-1.2zM553 553.6h-184.2c-0.6 0-1.2 0.6-1.2 1.2v28.2c0 0.6 0.6 1.2 1.2 1.2h184.2c0.6 0 1.2-0.6 1.2-1.2v-28.2c0-0.8-0.6-1.2-1.2-1.2zM305.8 427c2.6-6 3.6-12.4 3-19.4-2-22.2-21.6-38.6-43.6-36.6-22.2 2-38.6 21.6-36.6 43.6 2 22.2 21.6 38.6 43.6 36.6l2.2 25.4c-36.2 3.2-68-23.6-71.2-59.8s23.6-68 59.8-71.2 68 23.6 71.2 59.8c0.6 6.6 0.2 13-1.2 19.2l-27.2 2.4zM268.8 340v0c-2 0-4.2 0-6.2 0.2-39.2 3.4-68.2 38-64.8 77.2 3.4 38.4 37.8 68 77.2 64.8l5.4-0.4-3.2-36.4-5.4 0.4c-19.4 1.8-36-12.8-37.6-31.6-1.6-19 12.4-36 31.6-37.6 19-1.8 36 12.8 37.6 31.6 0.6 5.8-0.4 11.4-2.6 16.6l-3.6 8.4 40.6-3.6 0.8-4c1.4-6.8 1.8-13.8 1.2-20.8-3.2-36.2-34.4-64.8-71-64.8zM268.6 471.4c-30.8 0-57.2-24.2-59.8-55-3-33 21.6-62.4 54.8-65.2s62.4 22.2 65.2 54.8c0.4 4.6 0.2 9-0.4 13.6l-15 1.4c1-4.4 1.2-9 0.8-13.6-2.2-24.8-24.4-43.8-49.6-41.6s-43.8 24.4-41.6 49.6c2 23 21.2 41 44 41.6l1.6 14.4zM501.8 366h-133.2c-0.6 0-1.2 0.6-1.2 1.2v28.2c0 0.6 0.6 1.2 1.2 1.2h133.2c0.6 0 1.2-0.6 1.2-1.2v-28.2c0-0.6-0.4-1.2-1.2-1.2zM523.6 427.8h-154.8c-0.6 0-1.2 0.6-1.2 1.2v28.2c0 0.6 0.6 1.2 1.2 1.2h154.8c0.6 0 1.2-0.6 1.2-1.2v-28.2c0-0.8-0.6-1.2-1.2-1.2zM189.8 181.6c-29 0-52.4 22-52.4 49.2v633.6c0 27.2 23.4 49.2 52.4 49.2h538c29 0 52.4-22 52.4-49.2v-461.6c0-8.4 5-16.2 13-19.6 0.2 0 0.4-0.2 0.4-0.2 15.6-6.6 33.2 3.4 33.2 19.6v461.8c0 51.4-44.4 93-99 93h-538c-54.8 0-99-41.6-99-93v-633.6c0-51.4 44.4-93 99-93h229.8c12.8 0 23.2 9.8 23.2 21.8v0.4c0 12-10.4 21.8-23.2 21.8h-229.8z" />
<glyph unicode="&#xe913;" glyph-name="qr-bar-coding" d="M218.8 945.4h-159.8c-29.4 0-53-23.4-53-52.8v-159.8c0-29.4 23.6-53.4 53-53.4h159.8c29.4 0 53.4 24 53.4 53.4v159.8c0 29.4-24 52.8-53.4 52.8zM224 733.6c0-3.4-2.8-6.4-6.4-6.4h-159.2c-3.4 0-6.4 2.8-6.4 6.4v159.6c0 3.4 2.8 6.4 6.4 6.4h159.4c3.6 0 6.4-2.8 6.4-6.4l-0.2-159.6zM88 863.4h102v-102h-102v102zM218.8 529.2h-159.8c-29.4 0-53-23.4-53-52.8v-159.8c0-29.4 23.6-53.6 53-53.6h159.8c29.4 0 53.4 24.2 53.4 53.6v159.8c0 29.4-24 52.8-53.4 52.8zM224 316.8c0-3.6-2.4-5.6-6-5.6h-159.2c-3.4 0-6.8 2.2-6.8 5.6v159.2c0 3.4 3.2 7.2 6.8 7.2h159.4c3.4 0 6-3.6 6-7.2l-0.2-159.2zM88 447.2h102v-102h-102v102zM473 679.4h159.8c29.4 0 53.6 24 53.6 53.4v159.8c0 29.4-24.2 53-53.6 53h-159.8c-29.4 0-52.8-23.6-52.8-53v-159.8c0-29.4 23.4-53.4 52.8-53.4zM466.2 893.2c0 3.4 2.8 6.4 6.4 6.4h159.4c3.4 0 6.2-2.8 6.2-6.4v-159.4c0-3.4-2.8-6.4-6.2-6.4h-159.4c-3.4 0-6.4 2.8-6.4 6.4v159.4zM500.2 863.4h104v-102h-104v102zM101.6 649.2h-35.2c-7.6 0-14.4-6.4-14.4-14v-35.2c0-7.6 6.8-14.8 14.4-14.8h33.6v-0.4c0-7.6 5.4-13.6 13.2-13.6h78.8v-1.6c0-7.6 6.8-14.4 14.4-14.4h35.2c7.6 0 14.4 6.6 14.4 14.4v34.2c0 7.6-6.6 13.6-14.4 13.6h-17.6v18c0 7.6-6.2 14-13.8 14h-19c-7.6 0-13.2-6.4-13.2-14v-18h-62v18c0 7.6-6.6 13.8-14.4 13.8zM326.2 795.4v-78c0-7.6 5.2-14 13-14h50.4c7.6 0 14.6 6.4 14.6 14v35.2c0 7.6-7 14.8-14.6 14.8h-17.4v108h2.2c7.6 0 13.8 6 13.8 13.6v19c0 7.6-6.2 13.6-13.8 13.6h-66.8c-7.6 0-13.4-5.8-13.4-13.6v-19c0-7.6 5.8-13.6 13.4-13.6h18.6v-50h-18.6c-7.6 0-13.4-6.4-13.4-14.2v-2.6c0-7.6 5.8-13.2 13.4-13.2h18.6zM364.2 633.2v34.2c0 7.6-6.2 14-14 14h-34.2c-7.6 0-14-6.2-14-14v-34.2c0-7.6 6.2-14 14-14h34.2c7.8 0 14 6.2 14 14zM425 621.2c-7.6 0-14.8-6.6-14.8-14.4v-13.8c12 10.2 25.2 20 38.2 28l-23.4 0.2zM406.6 589.2h-59.8c-7.6 0-14.6-6-14.6-13.8v-80.2c16 28.8 35 56 59.4 80.2 4.6 4.8 10 9.8 15 13.8zM998.8 59.4l-131 131c68.8 110.2 55.6 258.4-40.4 354.4-111.6 111.6-293.4 111.6-405 0s-111.4-293.2 0.2-404.8c96-96 243.2-110 354.6-40.2l131-131c25.2-25.2 65.6-25.4 90.8-0.2 25.2 25 25 65.6-0.2 90.8zM773 194.2c-81.6-81.6-214.2-81.6-295.8 0s-81.6 214.2 0 295.8c81.6 81.6 214.2 81.6 295.8 0 81.6-81.4 81.6-214.2 0-295.8z" />
<glyph unicode="&#xe914;" glyph-name="verified" d="M874.038 810.040c-96.704 96.702-225.278 149.96-362.038 149.96-136.762 0-265.338-53.258-362.040-149.96-96.704-96.704-149.96-225.28-149.96-362.040s53.256-265.334 149.96-362.038c96.704-96.704 225.278-149.962 362.040-149.962 136.76 0 265.334 53.258 362.038 149.962s149.962 225.278 149.962 362.038-53.258 265.334-149.962 362.040zM512-4c-249.234 0-452 202.766-452 452s202.766 452 452 452 452-202.766 452-452-202.766-452-452-452zM756.61 612.282c-11.714 11.712-30.71 11.712-42.424-0.002l-264.918-264.918-139.454 139.454c-11.714 11.714-30.71 11.714-42.426 0s-11.716-30.71 0-42.426l160.666-160.666c5.858-5.858 13.536-8.786 21.212-8.786s15.356 2.93 21.212 8.786l286.132 286.132c11.716 11.714 11.716 30.71 0 42.426z" />
<glyph unicode="&#xe950;" d="M1024 448c0-282.77-229.23-512-512-512s-512 229.23-512 512c0 282.77 229.23 512 512 512s512-229.23 512-512z" />
<glyph unicode="&#xe951;" d="M335.36 712.533h354.133c47.787 0 87.040-39.253 87.040-87.893v-354.133c0-47.787-39.253-87.040-87.893-87.040h-353.28c-48.64 0-87.893 39.253-87.893 87.893v353.28c0 48.64 39.253 87.893 87.893 87.893z" />
<glyph unicode="&#xe952;" d="M448.853 299.52l-127.147 127.147 63.147 64 64-64 190.293 189.44 63.147-63.147z" />
<glyph unicode="&#xe995;" glyph-name="check1" d="M384 248.667l452 452 60-60-512-512-238 238 60 60z" />
<glyph unicode="&#xe9cc;" glyph-name="epps_white_logo" d="M6.8 489.8c3.4 0 6.4-3 6.4-6.4 0-3.6-3-6.4-6.4-6.4-3.6 0-6.4 2.8-6.4 6.4 0 3.2 2.8 6.4 6.4 6.4v0zM6.8 476.4c-3.8 0-6.8 3-6.8 6.8s3.2 6.8 6.8 6.8c3.6 0 6.8-3.2 6.8-6.8s-3.2-6.8-6.8-6.8zM6.8 489.4c-3.4 0-6.2-2.8-6.2-6.2s2.8-6.2 6.2-6.2c3.4 0 6.2 2.8 6.2 6.2s-3 6.2-6.2 6.2zM445.4 408.6h-60.2c-12.8 0-23.8 1.8-32.8 5-9.4 3.4-16.8 8.6-22.2 15.4-6 7.4-9.6 16.8-10.4 27.8-1.2 11 0.2 24 3.8 38.6 8.8 34.4 22.6 59 41.2 73.6 8.4 6.6 18.4 11.6 29.6 14.8 10.8 3.2 23.4 4.8 37.2 4.8h63.4l-1.2-4-7.2-29.2-1.2-4h-62.6c-6.2 0-11.6-0.8-16.4-2.2-4.8-1.6-9-3.8-12.6-6.6-3.6-3-6.8-6.8-9.6-11.4-2.2-3.6-4-8-5.6-12.8h98.2l-1-4.2-7.4-29.2-1-4.2h-99.2c-1.2-5.8-1.8-10.8-1.4-15 0.4-5 2-9 4.4-12v0c2-2.4 5.2-4.4 9.2-5.8s9.2-2 15.4-2h62.8l-1.2-4-7.2-29.2-1.2-4h-3.6zM663.4 528.6c-3-12-8-22.4-14.6-30.8-6.8-8.8-15.4-15.4-26-20.4v0c-6.4-2.8-13.2-5.2-20.6-6.6-7-1.4-14.8-2-23-2h-4.4c-0.6 0-1.2 0-1.8 0-0.4 0.2-0.8 0.2-1.2 0.2h-39.4l-14.2-56.2-1.2-4h-43l1 4.2 43.6 172 1 4h81.6c27.8 0 46.4-4.8 56-14.2v0c4.8-5 7.8-11.2 9-19 0.6-7.8-0.2-16.8-2.8-27.2v0zM616.2 528.8c1.2 4.2 1.4 7.8 1 10.6-0.4 2.4-1.6 4.6-3.2 6-2 1.6-5 2.6-8.8 3.6-4 0.8-8.8 1.2-14.6 1.2h-37.4l-10.8-43h39.4c10.2 0 18.2 2 23.8 5.6 5.2 3.4 9 8.8 10.6 16v0zM839.8 528.6c-3-12-8-22.4-14.6-30.8-6.8-8.8-15.6-15.4-26.2-20.4v0c-6.2-2.8-13.2-5.2-20.4-6.6s-14.8-2-23-2h-4.4c-0.6 0-1.2 0-1.8 0-0.4 0.2-1 0.2-1.2 0.2h-39.4l-14.4-56.2-1-4h-43.6l1 4.2 43.6 172 1 4h81.8c27.6 0 46.4-4.8 55.8-14.2v0c5-5 7.8-11.2 9-19s0.4-16.8-2.2-27.2v0zM792.6 528.8c1.2 4.2 1.6 7.8 1 10.6-0.4 2.4-1.4 4.6-3 6-2 1.6-5 2.6-8.8 3.6-4 0.8-9 1.2-14.6 1.2h-37.6l-10.8-43h39.2c10.2 0 18.2 2 23.8 5.6 5.4 3.4 9 8.8 10.8 16v0zM1000.8 464c-4-16-10.4-28.2-19.6-36.8-6.6-6.2-15-11-24.8-14.2-9.6-2.8-20.4-4.4-32.8-4.4h-99.2l1 4.2 7.6 30 1 4h93.4c4.6 0 8.4 0.4 11.6 1 3 0.6 5.6 1.4 7.6 2.2v0c2.2 1.2 4 2.6 5.4 4.6 1.8 2 2.8 4.6 3.6 7.6 0.8 3.2 1 6.2 0.8 8.2s-1 3.6-2 4.8c-1.4 1.2-3.2 2-6 2.8-2.8 0.6-6.2 1-10.4 1h-42.2c-9.8 0-18 1-24.8 3-7 2-12.6 5.2-16.6 9.2v0c-4.4 4.6-7 10.4-8 17.4-0.8 6.8-0.2 15 2.2 24.4 2.2 9.4 5.8 17.6 10.2 24.6 4.4 7.2 10 13.2 16.4 17.8s14 8 22.6 10.2v0c8.4 2.2 18 3.2 28.4 3.2h98l-1.2-4-7.4-30.2-1.2-4h-92.2c-16.4 0-26.2-6.4-29.4-19-0.8-2.6-0.8-5-0.4-6.6v0c0.2-1.8 1.2-3.2 2.2-4.4h0.2c1.4-1.4 3-2.2 5.2-3s5.2-1 8.2-1h47.4c8.6 0 16-0.6 22-1.8 6.2-1.4 11-3 14.6-5.6v0c6-4 9.4-10 10.8-17.8 1.4-7.4 0.6-16.6-2.2-27.4v0zM203.4 480c-1.2 0-2.6 0-3.8 0h-187.2v6.2h187.4c57.2-1.8 64.2 36.8 71.6 77.4 7.8 43 15.8 87.4 83.4 84h167.2v-6.2h-167.4c-62.2 3-69.4-36.8-77-78.8-7.6-40.6-15.2-82.6-74.2-82.6zM283.8 370.8c-13.6 0.8-22.8 4.8-28.4 12.2-10.6 14.2-5 37.4 0.2 60 4.8 20.2 9.6 41 1.4 50.8-4.4 5.4-12.6 7.6-25 6.8h-87.4v6.2h87.4c14.2 0.8 24.2-2.2 30-9 10.4-12.2 5.2-33.6 0-56.2-5-21.2-10.2-43-1.4-54.8 4.4-6 12.2-9 23.6-9.8l182 0.4v-6.2l-182.4-0.4zM131 518.8c-5.4 0-11.2 0.2-17.2 0.4h-37v6.2h37.2c90.8-4.4 98 24.2 105.6 54.2 7 27.6 14.2 56 85 56.2l213.6-2.2v-6.2l-214 2.4c-65.8-0.2-72.2-25.2-78.8-51.6-7.4-29.2-15-59.4-94.4-59.4zM251.4 356.6c-20.2 0-33.4 4.2-40.8 13-10 12-6.6 29.8-3.4 46.8 2.8 15.4 5.6 30.2-1.6 38.6-5 5.8-14.2 8.6-28.8 8.6h-82.8v6.2h82.8c16.4 0 27.4-3.4 33.6-11 9-10.8 5.8-27.6 2.8-43.8-3-15.8-6-32 2.2-41.8 6-7.2 17.8-10.8 36-10.8l212 1.6v-6.2l-212-1.2zM53.6 542.8l-5.2 3.6c23.8 35 60.4 75.2 133.2 74.4h334.6v-6.2h-334.6c-69.8 0.6-105-38-128-71.8zM111.4 390.2h357.8v-6.2h-357.8v6.2zM48 547c3.6 0 6.4-2.8 6.4-6.4s-2.8-6.6-6.4-6.6c-3.4 0-6.4 2.8-6.4 6.4s3 6.6 6.4 6.6v0zM48 533.8c-3.6 0-6.8 3.2-6.8 6.8s3.2 6.8 6.8 6.8c3.8 0 6.8-3 6.8-6.8 0-4-3-6.8-6.8-6.8zM48 546.6c-3.4 0-6.2-2.8-6.2-6.2s2.8-6.2 6.2-6.2c3.4 0 6.2 2.8 6.2 6.2 0 3.6-2.8 6.2-6.2 6.2zM71.8 529c3.6 0 6.4-3 6.4-6.4 0-3.6-2.8-6.4-6.4-6.4s-6.4 2.8-6.4 6.4c0 3.4 2.8 6.4 6.4 6.4v0zM71.8 515.8c-3.8 0-6.8 3-6.8 6.8 0 3.6 3.2 6.8 6.8 6.8s6.8-3.2 6.8-6.8c0-3.8-3-6.8-6.8-6.8zM71.8 528.8c-3.4 0-6.2-2.8-6.2-6.2s2.8-6.2 6.2-6.2c3.4 0 6.2 2.8 6.2 6.2s-2.8 6.2-6.2 6.2zM141.4 511c3.6 0 6.4-2.8 6.4-6.4 0-3.4-2.8-6.4-6.4-6.4s-6.4 3-6.4 6.4c-0.2 3.4 2.6 6.4 6.4 6.4v0zM141.4 497.6c-3.6 0-6.8 3.2-6.8 6.8 0 3.8 3 6.8 6.8 6.8s6.8-3 6.8-6.8c0-3.6-3.2-6.8-6.8-6.8zM141.4 510.6c-3.4 0-6.2-2.8-6.2-6.2s2.8-6.2 6.2-6.2c3.4 0 6.2 2.8 6.2 6.2-0.2 3.6-2.8 6.2-6.2 6.2zM89.2 473.8c3.6 0 6.4-2.8 6.4-6.4s-2.8-6.4-6.4-6.4c-3.6 0-6.4 2.8-6.4 6.4 0 3.4 2.8 6.4 6.4 6.4v0zM89.2 460.4c-3.8 0-6.8 3-6.8 6.8s3 6.8 6.8 6.8c3.8 0 6.8-3 6.8-6.8s-3-6.8-6.8-6.8zM89.2 473.4c-3.4 0-6.2-2.8-6.2-6.2s2.8-6.2 6.2-6.2c3.4 0 6.2 2.8 6.2 6.2s-2.8 6.2-6.2 6.2zM105 393.4c3.6 0 6.4-2.8 6.4-6.2 0-3.6-2.8-6.4-6.4-6.4s-6.4 2.8-6.4 6.4c0 3.4 2.8 6.2 6.4 6.2v0zM105 380.2c-3.8 0-6.8 3-6.8 6.8 0 3.6 3 6.6 6.8 6.6s6.8-3 6.8-6.6c0-3.8-3-6.8-6.8-6.8zM105 393c-3.4 0-6.2-2.6-6.2-6s2.8-6.2 6.2-6.2c3.4 0 6.2 2.8 6.2 6.2s-2.8 6-6.2 6zM527.6 647h14.2v-4.8h-14.2v4.8zM547 647h14.2v-4.8h-14.2v4.8zM566.6 647h14v-4.8h-14v4.8zM587.2 647h11.6v-4.8h-11.6v4.8zM606.8 647h11.2v-4.8h-11.2v4.8zM627.4 647h9.6v-4.8h-9.6v4.8zM648.4 647h6.2v-4.8h-6.2v4.8zM525.2 632.6h14v-4.8h-14v4.8zM544.6 632.6h14v-4.8h-14v4.8zM564.2 632.6h14v-4.8h-14v4.8zM585 632.6h11.4v-4.8h-11.4v4.8zM604.6 632.6h11.2v-4.8h-11.2v4.8zM624.8 632.6h9.8v-4.8h-9.8v4.8zM646 632.6h6.2v-4.8h-6.2v4.8zM521.4 619.4h14v-4.8h-14v4.8zM540.8 619.4h14v-4.8h-14v4.8zM560.4 619.4h14.2v-4.8h-14.2v4.8zM581.2 619.4h11.6v-4.8h-11.6v4.8zM600.8 619.4h11.2v-4.8h-11.2v4.8zM621 619.4h9.8v-4.8h-9.8v4.8zM642.4 619.4h6.2v-4.8h-6.2v4.8zM474.2 389.6h14v-5h-14v5zM493.8 389.6h14.2v-5h-14.2v5zM513.2 389.6h14.2v-5h-14.2v5zM534 389.6h11.6v-5h-11.6v5zM553.6 389.6h11.2v-5h-11.2v5zM573.8 389.6h9.8v-5h-9.8v5zM595.2 389.6h6.2v-5h-6.2v5zM472.2 377.2h14v-5h-14v5zM491.6 377.2h14v-5h-14v5zM511.2 377.2h14.2v-5h-14.2v5zM532 377.2h11.4v-5h-11.4v5zM551.6 377.2h11.2v-5h-11.2v5zM571.8 377.2h9.8v-5h-9.8v5zM593.2 377.2h6.2v-5h-6.2v5zM469.6 362.2h14v-4.8h-14v4.8zM489 362.2h14v-4.8h-14v4.8zM508.4 362.2h14v-4.8h-14v4.8zM529.2 362.2h11.4v-4.8h-11.4v4.8zM548.8 362.2h11.2v-4.8h-11.2v4.8zM569.2 362.2h9.8v-4.8h-9.8v4.8zM590.2 362.2h6.2v-4.8h-6.2v4.8zM255.4 249.4l3 14-11.8 22h5.4l5.6-10.4c1.2-2.2 2.4-4.8 3.6-7.4 1.2 2.2 3 4.6 5.2 7.2l9 10.6h6.2l-18.2-22.4-3-13.6h-5zM281.2 264.4c0 6.4 2 11.6 6 15.6s8.8 6 14.4 6c4.8 0 8.6-1.4 11.6-4.4s4.6-6.8 4.6-11.8c0-3.4-0.8-6.8-2.2-9.8-1.2-2.2-2.6-4.2-4.2-5.8-1.8-1.6-3.6-2.8-5.6-3.8-2.6-1.2-5.4-1.8-8.4-1.8s-5.8 0.6-8.4 2c-2.6 1.4-4.4 3.2-5.8 5.8s-2 5.2-2 8zM286.2 264.2c0-2.2 0.4-4 1.4-5.8s2.4-3.2 4.2-4.2c1.8-1 3.8-1.4 5.8-1.4s3.8 0.4 5.6 1.4c1.8 0.8 3.4 2 4.8 3.6s2.6 3.4 3.4 5.8c0.8 2.2 1.2 4.6 1.2 6.8 0 3.6-1 6.4-3.2 8.6s-4.8 3.2-8 3.2c-4 0-7.6-1.6-10.6-4.8-3-3.6-4.6-7.8-4.6-13.2zM328.6 285.2h5.2l-5-22c-0.4-1.8-0.6-3.2-0.6-4 0-2 0.8-3.4 2.4-4.6s3.6-1.8 6.2-1.8c2 0 3.8 0.4 5.4 1.2s3 2 4 3.8c1 1.6 1.8 4.2 2.6 7.8l4.4 19.8h5.2l-4.6-21c-0.8-3.6-1.8-6.4-3.2-8.6s-3.2-3.8-5.4-5c-2.4-1.2-5-2-8-2-2.8 0-5.4 0.4-7.6 1.4-2.2 0.8-3.8 2.2-4.8 3.8s-1.6 3.4-1.6 5.4c0 1.2 0.4 3.4 1 6.4l4.4 19.4zM359 249.4l8 36h16c3.2 0 5.6-0.2 7.2-0.8 1.6-0.4 3-1.4 3.8-2.8 1-1.4 1.4-3.2 1.4-5.2 0-3-1-5.4-3-7.2-2-2-5.4-3.2-9.8-3.8 1.4-1 2.4-2 3.2-2.8 1.6-2.2 2.8-4.2 3.8-6.6l3-6.8h-5.8l-2.8 6.6c-1 2.4-2.2 4.6-3.4 6.2-0.8 1.2-1.8 2-2.6 2.4-1 0.4-2.4 0.6-4.4 0.6h-6l-3.6-16h-5zM368.6 269.2h7c3.2 0 5.4 0 6.4 0.2 2 0.2 3.6 0.6 4.8 1.2s2.2 1.4 2.8 2.6c0.6 1 1 2.2 1 3.4 0 1-0.2 2-0.8 2.8s-1.2 1.4-2 1.6c-0.8 0.2-2.2 0.4-4.2 0.4h-12.4l-2.6-12.2zM412.6 249.4l8 36h16c3.2 0 5.6-0.2 7.2-0.8 1.6-0.4 3-1.4 3.8-2.8 1-1.4 1.4-3.2 1.4-5.2 0-3-1-5.4-3-7.2-2-2-5.4-3.2-9.8-3.8 1.4-1 2.4-2 3.2-2.8 1.6-2.2 2.8-4.2 3.8-6.6l3-6.8h-5.8l-2.8 6.6c-1 2.4-2.2 4.6-3.4 6.2-0.8 1.2-1.8 2-2.6 2.4-1 0.4-2.4 0.6-4.4 0.6h-6l-3.6-16h-5zM422.2 269.2h7c3.2 0 5.4 0 6.4 0.2 2 0.2 3.6 0.6 4.8 1.2s2.2 1.4 2.8 2.6c0.6 1 1 2.2 1 3.4 0 1-0.2 2-0.8 2.8s-1.2 1.4-2 1.6c-0.8 0.2-2.2 0.4-4.2 0.4h-12.4l-2.6-12.2zM459.4 285.2h5.2l-5-22c-0.4-1.8-0.6-3.2-0.6-4 0-2 0.8-3.4 2.4-4.6s3.6-1.8 6.2-1.8c2 0 3.8 0.4 5.4 1.2s3 2 4 3.8c1 1.6 1.8 4.2 2.6 7.8l4.4 19.8h5.2l-4.6-21c-0.8-3.6-1.8-6.4-3.2-8.6s-3.2-3.8-5.4-5c-2.4-1.2-5-2-8-2-2.8 0-5.4 0.4-7.6 1.4s-3.8 2.2-4.8 3.8c-1 1.6-1.6 3.4-1.6 5.4 0 1.2 0.4 3.4 1 6.4l4.4 19.4zM490 249.4l8 36h5l6.4-13.4c2-4.2 3.6-7.6 4.6-10.4 0.6-1.6 1.4-3.8 2.4-6.6 0.4 3 1 6.2 1.8 9.4l4.8 21.2h5l-8-36h-5l-9.6 20.8c-1.6 3.6-3 6.8-4 9.6-0.2-2.4-0.8-5.2-1.6-8.6l-4.8-21.8h-5zM528.8 249.4l8 36h5l6.4-13.4c2-4.2 3.6-7.6 4.6-10.4 0.6-1.6 1.4-3.8 2.4-6.6 0.4 3 1 6.2 1.8 9.4l4.8 21.2h5l-8-36h-5l-9.8 20.4c-1.6 3.6-3 6.8-4 9.6-0.2-2.4-0.8-5.2-1.6-8.6l-4.8-21.8h-4.8zM567.8 249.4l8 36h5l-8-36h-5zM582.2 249.4l8 36h5l6.4-13.4c2-4.2 3.6-7.6 4.6-10.4 0.6-1.6 1.4-3.8 2.4-6.6 0.4 3 1 6.2 1.8 9.4l4.8 21.2h5l-8-36h-5l-9.6 20.8c-1.6 3.6-3 6.8-4 9.6-0.2-2.4-0.8-5.2-1.6-8.6l-4.8-21.8h-5zM640.2 263.4l1 4h16.8l-3.2-14.6c-2.2-1.2-4.6-2.2-7.2-3-2.8-0.8-5.4-1.2-8-1.2-5.6 0-9.8 1.6-12.4 4.8-2.4 2.6-3.4 6-3.4 10.2 0 4.4 1 8.2 3 11.8s4.6 6.2 7.6 7.8 6.6 2.6 10.4 2.6c2.8 0 5.2-0.4 7.4-1.4s3.8-2.2 5-3.8c1.2-1.6 2-3.6 2.4-6l-5-0.6c-0.6 2.4-1.6 4.4-3.4 5.6-1.8 1.4-3.8 2-6.6 2s-5.4-0.8-7.8-2.2c-2.4-1.4-4.4-3.6-5.8-6.4s-2.2-6-2.2-9.8c0-3.6 1-6.4 2.8-8.2s4.6-2.8 7.8-2.8c3.4 0 7 1 10.8 3l1.8 7.8h-11.8zM677.2 249.4l8 36h16c2.8 0 4.8-0.2 6.2-0.8s2.6-1.6 3.4-3c1-1.4 1.4-3 1.4-4.8 0-1.4-0.4-3-1-4.6s-1.4-2.8-2.4-3.8c-1-1-2-1.8-3-2.2-1-0.6-2-0.8-3.2-1.2-2.4-0.6-5-0.8-7.4-0.8h-9.6l-3.2-14.6h-5.2zM686.4 268h8.4c3.2 0 5.6 0.4 7.2 1s2.8 1.6 3.6 3 1.4 2.8 1.4 4.4c0 1.2-0.2 2.2-0.8 2.8s-1.2 1.2-2 1.6c-0.8 0.4-2.6 0.6-5.2 0.6h-9.8l-2.8-13.4zM705.6 249.4l21.8 36h6l6.4-36h-5l-1.8 10.4h-15.6l-6.2-10.4h-5.6zM719.4 263.4h12.6l-1.4 9c-0.6 3.6-1 6.6-1 9-0.8-2-2.2-4.6-3.8-7.4l-6.4-10.6zM744.8 249.4l8 36h16c3.2 0 5.6-0.2 7.2-0.8 1.6-0.4 3-1.4 3.8-2.8 1-1.4 1.4-3.2 1.4-5.2 0-3-1-5.4-3-7.2s-5.4-3.2-9.8-3.8c1.4-1 2.4-2 3.2-2.8 1.6-2.2 2.8-4.2 3.8-6.6l3-6.8h-5.8l-2.6 6.6c-1 2.4-2.2 4.6-3.4 6.2-0.8 1.2-1.8 2-2.6 2.4-1 0.4-2.4 0.6-4.4 0.6h-6l-3.6-16h-5.2zM754.4 269.2h7c3.2 0 5.4 0 6.4 0.2 2 0.2 3.6 0.6 4.8 1.2s2.2 1.4 2.8 2.6c0.6 1 1 2.2 1 3.4 0 1-0.2 2-0.8 2.8s-1.2 1.4-2 1.6c-0.8 0.2-2.2 0.4-4.2 0.4h-12.4l-2.6-12.2zM792.2 249.4l7 31.8h-12.6l1 4h30.2l-1-4h-12.4l-7-31.8h-5.2zM815.4 249.4l8 36h5l6.4-13.4c2-4.2 3.6-7.6 4.6-10.4 0.6-1.6 1.4-3.8 2.4-6.6 0.4 3 1 6.2 1.8 9.4l4.8 21.2h5l-8-36h-5l-9.6 20.8c-1.6 3.6-3 6.8-4 9.6-0.2-2.4-0.8-5.2-1.6-8.6l-4.8-21.8h-5zM853.8 249.4l8 36h27.6l-1-4h-22.4l-2.6-11.2h22l-1-4h-22l-2.8-12.6h24.4l-1-4h-29.2zM889.6 249.4l8 36h16c3.2 0 5.6-0.2 7.2-0.8 1.6-0.4 3-1.4 3.8-2.8 1-1.4 1.4-3.2 1.4-5.2 0-3-1-5.4-3-7.2s-5.4-3.2-9.8-3.8c1.4-1 2.4-2 3.2-2.8 1.6-2.2 2.8-4.2 3.8-6.6l3-6.8h-5.8l-2.8 6.6c-1 2.4-2.2 4.6-3.4 6.2-0.8 1.2-1.8 2-2.6 2.4-1 0.4-2.4 0.6-4.4 0.6h-6l-3.6-16h-5zM899.2 269.2h7c3.2 0 5.4 0 6.4 0.2 2 0.2 3.6 0.6 4.8 1.2s2.2 1.4 2.8 2.6c0.6 1 1 2.2 1 3.4 0 1-0.2 2-0.8 2.8s-1.2 1.4-2 1.6c-0.8 0.2-2.2 0.4-4.2 0.4h-12.4l-2.6-12.2zM640.6 367.8l4.4 0.4v-1.2c0-1.2 0.4-2.4 1-3.4s1.6-1.8 3-2.4c1.4-0.6 3-0.8 5-0.8 2.8 0 4.8 0.6 6.2 1.6 1.4 1.2 2.2 2.4 2.2 3.8 0 1-0.4 2-1.2 2.8s-3 2-6.4 3.4c-2.8 1-4.6 2-5.6 2.6-1.6 1-2.6 2-3.4 3.2s-1.2 2.4-1.2 3.8c0 1.6 0.4 3.2 1.4 4.4 1 1.4 2.4 2.4 4.2 3 1.8 0.8 4 1 6.4 1 2.8 0 5.2-0.4 7-1.4 2-0.8 3.4-2 4.2-3.6 0.8-1.4 1.2-2.8 1.2-4.2 0-0.2 0-0.4 0-0.6l-4.4-0.4c0 1 0 1.6-0.2 2.2-0.4 0.8-0.8 1.6-1.4 2.2s-1.6 1.2-2.8 1.4-2.4 0.6-3.8 0.6c-2.4 0-4.4-0.6-5.8-1.6-1-0.8-1.6-1.8-1.6-3.2 0-0.8 0.2-1.4 0.6-2.2 0.4-0.6 1.2-1.2 2.4-1.8 0.8-0.4 2.8-1.2 5.8-2.6 2.4-1 4.2-1.8 5.2-2.4 1.2-0.8 2.2-1.8 2.8-2.8 0.6-1.2 1-2.4 1-3.8 0-1.8-0.6-3.4-1.6-4.8-1.2-1.4-2.6-2.6-4.6-3.4s-4.2-1.2-6.8-1.2c-3.8 0-7 0.8-9.6 2.4-2.4 2-3.6 4.8-3.6 9zM675.6 357.4l7.2 32.2h5.6l3.4-20.8c0.4-2.8 0.8-5.4 0.8-7.8 1 2.2 2.6 5.2 4.8 8.8l12 20h5.8l-7.2-32.2h-4.6l3.6 15.6c0.8 3.6 2 7.6 3.6 12.2-1-2-2.2-4.4-3.6-6.8l-12.8-21h-4.2l-3.4 20.6c-0.4 1.8-0.6 4-0.6 6.6-0.4-2.8-0.8-5-1.2-6.8l-4.6-20.6h-4.6zM716.8 357.4l19.4 32.2h5.4l5.6-32.2h-4.4l-1.6 9.2h-13.8l-5.6-9.2h-5zM729.4 370h11.4l-1.4 8c-0.6 3.2-0.8 5.8-1 8-0.8-1.8-2-4-3.4-6.6l-5.6-9.4zM756.4 357.4l7.2 32.2h14.4c2.8 0 5-0.2 6.4-0.6s2.6-1.2 3.4-2.6c0.8-1.2 1.2-2.8 1.2-4.6 0-2.6-1-4.8-2.8-6.6s-4.8-2.8-8.8-3.4c1.2-0.8 2.2-1.8 2.8-2.6 1.4-1.8 2.6-3.8 3.4-5.8l2.6-6h-5.2l-2.4 6c-0.8 2.2-2 4-3 5.6-0.8 1-1.6 1.8-2.4 2.2s-2.2 0.6-4 0.6h-5.4l-3.2-14.4h-4.2zM764.8 375.2h6.4c3 0 4.8 0 5.8 0.2 1.8 0.2 3.2 0.6 4.2 1 1.2 0.6 2 1.4 2.6 2.4s1 2 1 3.2c0 1-0.2 1.8-0.6 2.4s-1 1.2-1.8 1.4c-0.8 0.2-2 0.4-3.8 0.4h-11.2l-2.6-11zM803 357.4l6.4 28.6h-11.2l0.8 3.6h27l-0.8-3.6h-11.2l-6.4-28.6h-4.6zM845.6 357.4l7.2 32.2h24.8l-0.8-3.6h-20.2l-2.2-10h19.6l-0.8-3.6h-19.6l-2.4-11.2h21.6l-0.8-3.6h-26.4zM882 357.4l7.2 32.2h14.4c2.8 0 5-0.2 6.4-0.6s2.6-1.2 3.4-2.6c0.8-1.2 1.2-2.8 1.2-4.6 0-2.6-1-4.8-2.8-6.6s-4.8-2.8-8.8-3.4c1.2-0.8 2.2-1.8 2.8-2.6 1.4-1.8 2.6-3.8 3.4-5.8l2.6-6h-5.2l-2.4 6c-0.8 2.2-2 4-3 5.6-0.8 1-1.6 1.8-2.4 2.2s-2.2 0.6-4 0.6h-5.4l-3.2-14.4h-4.2zM890.6 375.2h6.4c3 0 4.8 0 5.8 0.2 1.8 0.2 3.2 0.6 4.2 1 1.2 0.6 2 1.4 2.6 2.4s1 2 1 3.2c0 1-0.2 1.8-0.6 2.4s-1 1.2-1.8 1.4c-0.8 0.2-2 0.4-3.8 0.4h-11.2l-2.6-11zM920.8 357.4l7.2 32.2h14.4c2.4 0 4.4-0.2 5.6-0.8s2.2-1.4 3-2.8c0.8-1.2 1.2-2.8 1.2-4.4 0-1.4-0.2-2.6-0.8-4s-1.4-2.6-2.2-3.4c-0.8-0.8-1.8-1.6-2.6-2-1-0.4-1.8-0.8-3-1-2.2-0.4-4.4-0.8-6.6-0.8h-8.6l-3-13h-4.6zM929 374.2h7.6c3 0 5 0.2 6.4 0.8s2.4 1.4 3.4 2.8c0.8 1.2 1.2 2.6 1.2 3.8 0 1-0.2 2-0.6 2.6s-1 1.2-1.8 1.4c-0.8 0.4-2.4 0.4-4.6 0.4h-8.8l-2.8-11.8z" />
<glyph unicode="&#xe9cd;" glyph-name="facebook" d="M0 960v-1024h545.342v395.55h-133.311v161.474h133.311v135.61c0 98.625 79.951 178.576 178.576 178.576h139.367v-145.202h-99.724c-31.338 0-56.744-25.406-56.744-56.744v-112.242h153.963l-21.279-161.474h-132.684v-395.548h317.183v1024h-1024z" />
<glyph unicode="&#xe9ce;" glyph-name="fancy_quote_icon" d="M374.329 419.84v267.567c0 75.947 23.799 137.576 71.49 184.794s115.579 76.421 203.852 87.799v-121.742c-43.425-9.481-74.619-25.031-93.487-46.744s-28.35-52.907-28.35-93.487h121.742v-278.281h-275.247zM573.156-2.844c0-33.775-27.38-61.156-61.156-61.156s-61.156 27.38-61.156 61.156c0 33.775 27.38 61.156 61.156 61.156s61.156-27.38 61.156-61.156zM491.615 352.996h40.676v-319.81h-40.676v319.81z" />
<glyph unicode="&#xea6e;" glyph-name="left-arrow" d="M249.856 427.52l483.328-483.328c6.144-6.144 12.288-8.192 20.48-8.192s14.336 2.048 20.48 8.192c12.288 12.288 12.288 28.672 0 40.96l-462.848 462.848 462.848 462.848c12.288 12.288 12.288 28.672 0 40.96s-28.672 12.288-40.96 0l-483.328-483.328c-10.24-10.24-10.24-28.672 0-40.96z" />
<glyph unicode="&#xea6f;" d="M0 960h1024v-1024h-1024v1024z" />
<glyph unicode="&#xea70;" d="M240.995 804.478c46.9-0.038 85.581-38.775 85.48-85.909-0.112-49.354-41.070-86.552-86.058-85.48-45.631-0.923-85.732 37.189-85.723 85.806 0 47.152 38.832 85.62 86.3 85.584z" />
<glyph unicode="&#xea71;" d="M290.824 91.623h-100.485c-13.041 0-23.613 10.572-23.613 23.613v428.676c0 13.041 10.572 23.613 23.613 23.613h100.485c13.041 0 23.613-10.572 23.613-23.613v-428.678c-0.002-13.039-10.572-23.611-23.613-23.611z" />
<glyph unicode="&#xea72;" d="M869.305 416.955c0 89.869-72.853 162.723-162.723 162.723h-25.772c-49.168 0-92.605-24.532-118.733-62.029-2.849-4.087-5.487-8.332-7.909-12.713-0.838 0.126-1.335 0.191-1.346 0.169v52.619c0 5.413-4.388 9.803-9.803 9.803h-125.368c-5.413 0-9.803-4.388-9.803-9.803v-456.302c0-5.413 4.386-9.801 9.799-9.803l128.1-0.031c5.415-0.002 9.806 4.388 9.806 9.803v263.618c0 45.568 36.344 83.404 81.91 83.919 23.26 0.263 44.348-9.057 59.546-24.265 14.998-14.989 24.271-35.715 24.271-58.598v-264.707c0-5.413 4.388-9.801 9.799-9.803l128.417-0.031c5.415-0.002 9.806 4.388 9.806 9.803v315.63z" />
<glyph unicode="&#xea73;" glyph-name="location-map" d="M744.107 823.467c-75.093 81.92-197.973 116.053-307.2 88.747-88.747-20.48-163.84-75.093-204.8-150.187-27.307-34.133-40.96-75.093-47.787-122.88s-6.827-95.573 6.827-136.533c20.48-88.747 61.44-177.493 102.4-252.587 40.96-68.267 88.747-129.707 136.533-191.147 13.653-20.48 27.307-34.133 47.787-54.613 6.827-6.827 20.48-20.48 27.307-27.307 0 0 6.827 0 6.827 0s6.827 0 6.827 0 13.653 6.827 13.653 13.653c0 0 6.827 6.827 6.827 6.827 13.653 13.653 27.307 27.307 40.96 47.787 47.787 54.613 88.747 116.053 129.707 184.32 47.787 75.093 88.747 157.013 116.053 245.76 13.653 47.787 20.48 95.573 13.653 150.187s-20.48 102.4-47.787 143.36c-13.653 20.48-27.307 34.133-47.787 54.613zM709.973 516.267c-34.133-95.573-136.533-157.013-238.933-136.533-75.093 13.653-143.36 68.267-163.84 143.36-20.48 68.267-6.827 157.013 47.787 211.627 61.44 61.44 150.187 81.92 232.107 54.613 95.573-34.133 150.187-136.533 136.533-238.933-6.827-13.653-6.827-20.48-13.653-34.133 0-6.827 13.653 20.48 0 0zM846.507 591.36c0-81.92-27.307-170.667-61.44-245.76s-75.093-143.36-122.88-204.8c-34.133-47.787-68.267-88.747-102.4-129.707-6.827-6.827-13.653-13.653-20.48-20.48s-6.827-6.827-13.653-13.653c0 0-6.827-6.827-13.653 0 0 0 0 6.827 0 6.827 0 40.96 0 81.92 0 122.88 0 54.613 0 116.053 0 170.667 0 20.48 0 40.96 0 68.267 0 6.827 0 13.653 0 20.48 0 0 0 6.827 0 6.827s13.653 0 13.653 0 27.307 0 40.96 6.827 47.787 20.48 68.267 34.133c40.96 34.133 75.093 75.093 81.92 129.707 13.653 54.613 0 109.227-27.307 157.013-27.307 40.96-61.44 68.267-109.227 88.747-6.827 6.827-20.48 6.827-34.133 6.827-6.827 0-13.653 0-20.48 0 0 0-6.827 0-6.827 0s-6.827 0-6.827 0c0 0 0 6.827 0 6.827 0 6.827 0 6.827 0 13.653 0 27.307 0 54.613 0 81.92 0 6.827 0 13.653 0 20.48 75.093 0 150.187-27.307 204.8-68.267 47.787-40.96 88.747-95.573 109.227-150.187 13.653-40.96 20.48-75.093 20.48-109.227zM286.72 591.36c0-95.573 61.44-177.493 150.187-211.627s191.147-6.827 245.76 68.267c61.44 75.093 68.267 177.493 20.48 259.413-47.787 75.093-143.36 122.88-238.933 102.4-88.747-20.48-157.013-95.573-177.493-184.32 0-13.653 0-27.307 0-34.133zM587.093 748.373c75.093-34.133 116.053-116.053 95.573-197.973-13.653-61.44-61.44-116.053-122.88-129.707-61.44-20.48-129.707 0-177.493 47.787-47.787 54.613-61.44 129.707-27.307 191.147 34.133 75.093 122.88 116.053 204.8 95.573 6.827 0 13.653 0 27.307-6.827 0 0-6.827 0 0 0z" />
<glyph unicode="&#xea84;" d="M512 960c-281.6 0-512-230.4-512-512s230.4-512 512-512 512 230.4 512 512-230.4 512-512 512z" />
<glyph unicode="&#xea85;" d="M757.333 409.6h-492.8c-21.333 0-38.4 17.067-38.4 38.4s17.067 38.4 38.4 38.4h492.8c21.333 0 38.4-17.067 38.4-38.4s-14.933-38.4-38.4-38.4z" />
<glyph unicode="&#xeaf9;" d="M512 960c-281.6 0-512-230.4-512-512s230.4-512 512-512 512 230.4 512 512-230.4 512-512 512z" />
<glyph unicode="&#xeafa;" d="M757.333 409.6h-206.933v-217.6c0-21.333-17.067-38.4-38.4-38.4s-38.4 17.067-38.4 38.4v217.6h-206.933c-21.333 0-38.4 17.067-38.4 38.4s17.067 38.4 38.4 38.4h206.933v196.267c0 21.333 17.067 38.4 38.4 38.4s38.4-17.067 38.4-38.4v-196.267h206.933c21.333 0 38.4-17.067 38.4-38.4s-14.933-38.4-38.4-38.4z" />
<glyph unicode="&#xeb01;" glyph-name="right-arrow" d="M774.144 468.48l-483.328 483.328c-12.288 12.288-28.672 12.288-40.96 0s-12.288-28.672 0-40.96l462.848-462.848-462.848-462.848c-12.288-12.288-12.288-28.672 0-40.96 6.144-6.144 12.288-8.192 20.48-8.192s14.336 2.048 20.48 8.192l483.328 483.328c10.24 12.288 10.24 30.72 0 40.96z" />
<glyph unicode="&#xeb02;" glyph-name="right-arrow-black" d="M689.55 797.181c-13.95 14.438-37.168 14.438-51.606 0-13.95-13.95-13.95-37.168 0-51.086l261.674-261.674h-863.49c-20.129-0.033-36.128-16.032-36.128-36.16s15.999-36.648 36.128-36.648h863.49l-261.674-261.187c-13.95-14.438-13.95-37.689 0-51.606 14.438-14.438 37.689-14.438 51.606 0l323.622 323.622c14.438 13.95 14.438 37.168 0 51.086l-323.622 323.654z" />
<glyph unicode="&#xeb14;" d="M0 960h1024v-1024h-1024v1024z" />
<glyph unicode="&#xeb15;" d="M135.663 200.934c68.15-43.222 148.99-68.235 235.648-68.235 243.454 0 440.805 197.373 440.805 440.805 0 6.078-0.128 12.111-0.362 18.126 8.806 6.93 63.267 50.581 76.616 78.643 0 0-44.227-18.38-87.512-22.71-0.085 0-0.191-0.020-0.276-0.020 0 0 0.085 0.043 0.234 0.148 3.988 2.665 59.748 40.622 67.298 85.849 0 0-31.282-16.697-75.081-31.304-7.251-2.409-14.841-4.777-22.667-6.972-28.233 30.131-68.363 48.938-112.909 48.938-85.444 0-154.682-69.217-154.682-154.596 0-12.048 1.386-23.775 4.009-35.034-11.94 0.49-193.769 10.684-317.468 160.483 0 0-73.929-100.926 44.056-204.707 0 0-35.866 1.429-66.808 19.917 0 0-11.365-122.269 122.249-153.531 0 0-26.291-9.958-68.235-2.858 0 0 23.456-98.793 142.166-108.026 0 0-93.87-84.799-227.123-64.903l0.043-0.011z" />
<glyph unicode="&#xeb16;" d="M0 960h1024v-1024h-1024v1024z" />
<glyph unicode="&#xeb17;" d="M153.902 89.513l50.158 178.146c-32.255 54.796-49.237 117.142-49.237 181.189 0 197.203 160.436 357.639 357.639 357.639s357.636-160.436 357.636-357.639c0-197.203-160.434-357.639-357.636-357.639-61.447 0-121.616 15.729-174.843 45.595l-183.717-47.291zM347.011 201.869l10.947-6.685c46.408-28.332 99.836-43.308 154.504-43.308 163.75 0 296.969 133.221 296.969 296.971s-133.219 296.971-296.969 296.971-296.971-133.221-296.971-296.971c0-57.057 16.216-112.464 46.891-160.232l7.372-11.48-28.884-102.591 106.141 27.323z" />
<glyph unicode="&#xeb18;" d="M411.997 615.304l-23.206 1.265c-7.289 0.398-14.439-2.038-19.948-6.824-11.25-9.77-29.239-28.657-34.765-53.27-8.24-36.699 4.494-81.638 37.45-126.577s94.371-116.841 202.973-147.55c34.996-9.896 62.526-3.224 83.766 10.363 16.823 10.761 28.419 28.033 32.599 47.559l3.705 17.306c1.177 5.501-1.616 11.082-6.725 13.437l-78.429 36.151c-5.092 2.346-11.129 0.863-14.553-3.575l-30.79-39.915c-2.326-3.015-6.307-4.211-9.902-2.948-21.085 7.41-91.716 36.991-130.471 111.644-1.681 3.238-1.263 7.168 1.121 9.929l29.426 34.041c3.006 3.476 3.766 8.363 1.959 12.587l-33.807 79.095c-1.8 4.211-5.833 7.033-10.401 7.282z" />
<glyph unicode="&#xeb1a;" d="M0 960h1024v-1024h-1024v1024z" />
<glyph unicode="&#xeb1b;" d="M933.736 660.101c-10.145 37.736-39.822 67.413-77.559 77.559-68.741 18.773-344.178 18.773-344.178 18.773s-275.437 0-344.273-18.11c-36.978-10.145-67.413-40.581-77.559-78.317-18.11-68.741-18.11-211.532-18.11-211.532s0-143.455 18.11-211.627c10.145-37.736 39.822-67.413 77.559-77.559 69.594-18.773 344.273-18.773 344.273-18.773s275.437 0 344.273 18.11c37.736 10.145 67.413 39.822 77.559 77.559 18.11 68.836 18.11 211.627 18.11 211.627s0.759 143.455-18.204 212.29v0z" />
<glyph unicode="&#xeb1c;" d="M424.296 316.587l228.978 131.887-228.978 131.982v-263.87z" />
<glyph unicode="&#xeb1d;" glyph-name="location_onplaceroom" d="M512 448.667q44 0 75 31t31 75-31 75-75 31-75-31-31-75 31-75 75-31zM512 852.667q124 0 211-87t87-211q0-62-31-142t-75-150-87-131-73-97l-32-34q-12 14-32 37t-72 92-91 134-71 147-32 144q0 124 87 211t211 87z" />
</font>
</defs>
</svg>
